#TITLE:Sexy Love;
#SUBTITLE:Expi3nze;
#ARTIST:Tiara;
#TITLETRANSLIT:;
#SUBTITLETRANSLIT:;
#ARTISTTRANSLIT:;
#CREDIT:;
#BANNER:pn.png;
#BACKGROUND:bg.png;
#LYRICSPATH:;
#CDTITLE:cdtitle.png;
#MUSIC:Sexy Love.mp3;
#OFFSET:0.280;
#SAMPLESTART:100.000;
#SAMPLELENGTH:12.000;
#SELECTABLE:YES;
#BPMS:0.000=132.000,121.000=138.000,125.000=132.000,140.000=264.000,140.500=66.000,140.750=132.000,236.000=264.000,236.500=66.000,236.750=132.000;
#STOPS:;
#BGCHANGES:;
// cache tags:
#FIRSTBEAT:1.000;
#LASTBEAT:322.750;
#SONGFILENAME:Songs/9you/Sexy Love (Tiara)/Sexy Love.sm;
#HASMUSIC:1;
#HASBANNER:1;
#MUSICLENGTH:146.307;
// end cache tags

//---------------dance-single - ----------------
#NOTES:
     dance-single:
     :
     Hard:
     15:
     1.000,1.000,1.000,0.499,0.448,725.000,354.000,73.000,0.000,67.000:
0000
0000
0000
0000
0010
0000
0010
1000
0101
0000
0100
0000
0100
0000
0001
0100
,
1001
0000
0010
0000
0010
0000
1000
0010
1001
0000
1000
0000
0100
0000
1000
0010
,
1001
0000
0010
0000
1000
0000
0010
1000
0011
0000
0010
0000
1000
0000
1000
0010
,
1100
0000
0100
0000
0200
0000
0000
0320
0000
0000
0030
2000
0000
0000
3200
0000
,
0000
0302
0000
0000
0203
0000
0000
0320
0000
0000
2030
0000
0000
3020
0000
0000
,
0230
0000
0000
0302
0000
0000
2003
0000
0000
3020
0000
0000
2030
0000
0100
3002
,
0010
0100
0103
0000
2220
0000
0000
0000
0000
0000
3330
0000
1110
0000
0011
1000
,
0011
1000
0000
0000
1010
0000
1010
0000
0101
0000
0101
0000
1010
0000
1010
0000
,
0111
0000
0100
0000
0011
1000
0011
0000
1010
0000
1010
0000
1010
0000
0101
0000
,
0111
0000
1010
0000
1010
0000
0011
0000
1010
0000
1001
0100
1001
0000
1100
0000
,
0110
0000
0011
0000
1100
0000
0001
0000
1100
0000
0001
0000
1100
0001
1100
0000
,
0111
1000
1010
1010
1001
1001
0011
1010
,
1011
0000
0101
0000
0101
0000
1010
0100
1010
0000
1010
0000
0101
0000
0101
0000
,
0111
0000
1100
0000
0011
0000
1100
0000
0011
0000
1010
0001
1010
0000
1001
0000
,
1010
0000
1001
0000
0011
0000
1000
0000
0011
0000
1000
0000
0010
0100
0010
0000
,
0101
0101
0010
1000
0011
1000
0011
1000
,
0011
1000
0010
1000
1010
0010
1000
1000
,
2010
0010
0020
0001
3101
0100
2031
0100
,
0100
0000
0010
0000
3012
0000
1000
0010
1100
0000
0010
0000
1000
0000
1013
0000
,
0011
1010
1000
0001
1100
0001
0100
0001
,
0101
0000
0100
0000
0001
0000
1000
0000
1001
0000
0001
0010
0100
0001
0010
0100
,
0011
0001
2100
0100
0001
0100
3021
0001
,
2000
0000
0100
0000
0132
0000
0010
0000
3010
0000
1000
0010
1103
0000
0010
0000
,
1000
0000
0011
1000
0011
0000
1000
0010
1001
0000
1000
0000
0010
0000
0001
0010
,
1001
0000
0010
0000
0010
0000
1000
0100
1010
0000
0100
0000
0100
0000
0001
0000
,
1100
0001
2000
0001
0011
0100
0001
0100
,
0012
0100
3100
0000
1010
1000
0013
1000
,
0011
0000
1000
0000
0011
0000
1000
0100
1001
0000
1000
0000
0010
0000
1000
0001
,
1100
0000
0010
0000
1000
0000
0010
0100
1001
0000
0010
0000
0010
0000
0001
0000
,
2010
0000
0010
0000
3020
0000
1001
0000
1031
0000
1100
0011
1100
0000
0011
1100
,
0011
0000
1000
0000
0000
0000
0000
0000
0100
0000
0000
0100
0011
0000
1100
0001
,
1100
0001
0000
0000
1010
0000
1010
0001
1010
0000
0001
0000
1010
0000
1001
0010
,
1001
0000
1000
0100
1001
0000
1000
0000
0111
0000
1000
0000
1001
0000
1001
0100
,
1001
0000
0100
1000
0101
0000
0100
1000
0101
0000
0100
0000
0010
0000
0101
0010
,
0101
0101
0101
0001
1100
0001
1100
0001
,
1100
0000
0000
0000
1010
0000
1010
0001
1010
0000
0100
0010
0101
0000
0100
0010
,
0101
0000
1000
0100
1001
0000
1001
0100
1001
0000
0010
0100
1001
0000
1001
0100
,
1001
0000
0001
0010
1001
0000
0010
0001
1100
0000
2000
0000
3111
0000
0101
1000
,
0101
1000
0010
1000
0111
0100
0010
1110
,
0011
1100
0011
1100
0020
0000
0100
1000
0132
0000
0100
0000
2013
0000
0010
0010
,
3201
0000
1000
0000
1310
0000
1010
0000
0101
0000
0101
0000
2100
0000
0001
0100
,
3011
0000
1010
0001
1010
0000
0011
1000
0011
0000
1000
0100
1001
0000
1000
0100
,
1001
0000
1001
0100
1001
0000
1001
0100
1001
0000
1010
0000
1001
0000
0010
1000
,
0110
0000
0010
0000
0020
0000
0100
1000
0132
0000
0100
0000
2013
0000
0010
0010
,
3201
0000
1000
0000
1310
0000
1010
0000
0101
0000
0101
0000
2100
0000
0001
0100
,
3011
0000
1010
0001
1010
0000
0011
1000
0011
0000
1000
0100
1010
0000
1000
0100
,
1010
0001
1010
0001
1010
1010
1010
0111
,
0111
0000
1010
0001
1010
0000
0010
0000
1000
0000
0010
0000
1000
0000
0001
0000
,
1100
0001
1000
0010
0110
0010
1000
0001
,
1001
1000
0010
0000
0110
0100
0001
0100
,
0101
0000
0001
0000
0102
0000
0000
0000
0103
0000
0100
0000
0010
0100
0001
0010
,
0100
0001
0200
1000
1312
0000
2013
0000
,
3020
0000
0100
0000
0132
0000
0000
0203
0000
0000
0302
0000
0000
0023
0000
0000
,
2030
0000
0000
3020
0000
0000
2030
0000
0000
3002
0000
0000
0203
0000
0000
2300
,
0000
0000
3002
0000
0200
0003
0000
0000
0300
0000
0000
0000
0010
0000
1100
0011
,
1100
0001
0100
0000
1010
0000
1010
0001
1010
0000
0001
0000
1010
0000
1001
0010
,
1001
0000
1000
0100
1001
0000
1000
0000
0111
0000
1000
0000
1001
0000
1001
0100
,
1001
0000
0100
1000
0101
0000
0100
1000
0101
0000
0100
0000
0010
0000
0101
0010
,
0101
0101
0101
0001
1100
0001
1100
0001
,
1100
0000
0000
0000
1010
0000
1010
0001
1010
0000
0100
0010
0101
0000
0100
0010
,
0101
0000
1000
0100
1001
0000
1001
0100
1001
0000
0010
0100
1001
0000
1001
0100
,
1001
0000
0001
0010
1001
0000
0010
0001
1100
0000
2000
0000
3111
0000
0101
1000
,
0101
1000
0010
1000
0111
0100
0010
1110
,
0011
1100
0011
1100
0020
0000
0100
1000
0132
0000
0100
0000
2013
0000
0010
0010
,
3201
0000
1000
0000
1310
0000
1010
0000
0101
0000
0101
0000
2100
0000
0001
0100
,
3011
0000
1010
0001
1010
0000
0011
1000
0011
0000
1000
0100
1001
0000
1000
0100
,
1001
0000
1001
0100
1001
0000
1001
0100
1001
0000
1010
0000
1001
0000
0010
1000
,
0110
0000
0010
0000
0020
0000
0100
1000
0132
0000
0100
0000
2013
0000
0010
0010
,
3201
0000
1000
0000
1310
0000
1010
0000
0101
0000
0101
0000
2100
0000
0001
0100
,
3011
0000
1010
0001
1010
0000
0011
1000
0011
0000
1000
0100
1010
0000
1000
0100
,
1010
0001
1010
0001
1010
1010
1010
0111
,
0111
0000
1000
0001
1010
0000
1010
0000
0101
0000
0101
0000
1010
0000
1010
0000
,
0111
0000
0100
0000
0101
0000
0101
1000
0101
0000
1010
0000
1010
0000
0101
0000
,
0111
0000
1010
0000
1010
0000
0011
0000
1010
0000
1001
0100
1001
0000
1100
0000
,
0110
0000
0011
0000
1100
0000
0001
0000
1100
0000
0001
0000
1100
0001
1100
0000
,
0111
1000
1010
1010
1001
1001
0011
1010
,
1011
0000
0101
0000
0101
0000
1010
0100
1010
0000
1010
0000
0101
0000
0101
0000
,
0111
0000
1100
0000
0011
0000
1100
0000
0011
0000
1010
0001
1010
0000
1001
0000
,
1010
0000
1001
0000
0011
0000
1000
0000
0011
0000
1000
0000
0010
0100
0010
0000
,
0101
0000
0101
0000
0202
0000
0000
0000
0000
0000
0003
0000
0001
0000
0001
0001
,
0000
0001
0000
0000
0322
0000
0000
0000
0000
0030
0000
0003
0000
0000
0000
0000
;

//---------------dance-single - ----------------
#NOTES:
     dance-single:
     :
     Medium:
     10:
     0.818,0.827,0.861,0.766,0.229,600.000,126.000,112.000,0.000,33.000:
0000
0000
0100
0100
0100
0001
0100
0001
,
1100
1100
0001
0001
1000
0001
1000
0010
,
1010
1010
1000
0001
1000
0010
0010
1000
,
0101
0000
0101
0000
0200
0000
0000
0300
0020
0000
0000
0230
0000
0000
2300
0000
,
0000
3020
0000
0000
0032
0000
0000
0203
0000
0000
0320
0000
0000
0032
0000
0000
,
2003
0000
0000
3020
0000
0000
0230
0000
0000
0302
0000
0000
2003
0000
0000
3002
,
1000
0100
0013
1000
0021
0000
0000
0000
0000
0000
0030
0000
1000
0000
1000
0010
,
1000
0001
0000
0000
1000
0000
0010
0000
1000
0000
0001
0000
1000
0000
0010
0000
,
0101
0000
1000
0000
0001
0100
0010
0000
0001
0000
0100
0000
1000
0000
0010
0000
,
1001
0000
0100
0000
0010
0000
0001
0000
1000
0000
1000
0010
0100
0000
1000
0000
,
0001
0000
1000
0000
0010
0000
0000
0000
0010
0000
0000
0000
0010
0100
0010
0000
,
1001
1001
0010
0100
1000
0010
0010
1000
,
0011
0000
1000
0000
0100
1000
0010
0100
0001
0000
0100
0000
1000
0000
0010
0000
,
0101
0000
1000
0000
0010
0000
0010
0000
1000
0000
0001
0100
0001
0000
0010
0000
,
0101
0000
0001
0000
0100
0000
0000
0000
0100
0000
0001
0000
0100
0010
0100
0000
,
1010
1010
0001
0010
0101
1000
0010
0010
,
0101
1000
0100
0010
0101
0010
0100
0010
,
1002
0100
0010
1000
1010
0100
1000
0010
,
1100
0010
1000
0100
0010
1000
0010
1000
,
1013
1010
0001
1000
0011
1000
0100
0001
,
1010
0000
0001
0000
0010
0000
0100
0000
1000
0100
0010
0001
0010
0100
1000
0000
,
0012
0010
1000
0100
1010
0100
0010
0010
,
1100
0000
0010
0000
1000
0000
0010
0100
1000
0000
0010
0100
1003
0000
0010
0000
,
0101
0000
0001
0010
0100
0000
0010
0000
0101
0000
0010
0000
1000
0000
0100
0001
,
1100
0001
0010
0100
1010
0100
0001
0010
,
0101
0100
2001
0001
0010
0100
0001
0010
,
3102
1000
0010
0010
1000
0010
0103
1000
,
0011
0000
0011
0000
1000
0000
0100
0000
1010
0000
0100
0000
0001
0000
0010
1000
,
0101
0000
0010
0000
0100
0000
1000
0000
0011
0000
1000
0000
0011
1000
0100
0010
,
0001
0000
1100
0000
1100
0000
0011
0000
0110
0000
1100
0001
0010
0001
0100
1000
,
0001
0000
1000
0000
0000
0000
0000
0000
0000
0000
0000
0000
0010
1000
0001
0000
,
0100
1000
0000
0000
0010
0000
0100
0000
1002
0000
0010
0000
1003
0000
0100
0000
,
0012
1000
0103
0010
2001
0010
3100
0001
,
1020
0000
1000
0000
1030
0000
0001
0000
1000
0000
0010
1000
0100
0000
0010
0100
,
1001
1001
2002
0000
3223
0000
0000
0000
,
1331
0000
0010
1000
0020
1000
1030
0100
,
2010
0001
3010
0010
1020
1000
1030
0001
,
2100
0000
0001
0000
3100
0000
0010
0000
1000
0000
0010
1000
0100
0000
0010
0000
,
0101
0000
1000
0000
0022
0000
0000
0000
2133
0000
0000
0000
0100
0000
0010
0100
,
3001
0010
0100
1000
0012
0000
0000
0000
2103
0000
0000
0000
3200
0000
0000
0000
,
0321
0000
1030
1000
0001
1000
2020
0000
,
3131
0010
0100
1000
0011
0001
1000
0010
,
0101
0202
0000
0000
1313
2020
0000
0000
,
3131
2100
3201
0302
,
0203
0000
0301
0010
1100
0001
0010
0100
,
1001
0001
2000
0000
3200
0002
2303
0000
,
3020
0000
2000
0000
0000
0000
3002
1000
,
1133
0001
0010
0100
1000
0000
0010
0000
0010
0000
1000
0000
0001
0000
0010
0000
,
0101
0001
1000
0100
0011
1000
0001
0010
,
1010
0001
1000
0100
0011
0100
1000
0010
,
0101
0010
1000
0001
1100
0001
1000
0100
,
0010
0000
0000
0000
2000
0000
0000
3000
0020
0000
0000
2030
0000
0000
3200
0000
,
0000
0320
0000
0000
0032
0000
0000
0203
0000
0000
2300
0000
0000
3020
0000
0000
,
0230
0000
0000
0302
0000
0000
2003
0000
0000
3200
0000
0000
0320
0000
0000
0032
,
0000
0000
2003
0000
0000
3200
0000
0000
0300
0000
0000
0000
1010
0000
0010
1000
,
0000
0010
1000
0000
0010
0000
0100
0000
1002
0000
0010
0000
1003
0000
0100
0000
,
0012
1000
0103
0010
2001
0010
3100
0001
,
1020
0000
1000
0000
1030
0000
0001
0000
1000
0000
0010
1000
0100
0000
0010
0100
,
1001
1001
2002
0000
3223
0000
0000
0000
,
1331
0000
0010
1000
0020
1000
1030
0100
,
2010
0001
3010
0010
1020
1000
1030
0001
,
2100
0000
0001
0000
3100
0000
0010
0000
1000
0000
0010
1000
0100
0000
0010
0000
,
0101
0000
1000
0000
0022
0000
0000
0000
2133
0000
0000
0000
0100
0000
0010
0100
,
3001
0010
0100
1000
0012
0000
0000
0000
2103
0000
0000
0000
3200
0000
0000
0000
,
0321
0000
1030
1000
0001
1000
2020
0000
,
3131
0010
0100
1000
0011
0001
1000
0010
,
0101
0202
0000
0000
1313
2020
0000
0000
,
3131
2100
3201
0302
,
0203
0000
0301
0010
1100
0001
0010
0100
,
1001
0001
2000
0000
3200
0002
2303
0000
,
3020
0000
2000
0000
0000
0000
3002
1000
,
1133
0001
0010
0100
1000
0000
0010
0000
1000
0000
0001
0000
1000
0000
0010
0000
,
0101
0000
1000
0000
0001
0100
0010
0000
0001
0000
0100
0000
1000
0000
0010
0000
,
1001
0000
0100
0000
0010
0000
0001
0000
1000
0000
1000
0010
0100
0000
1000
0000
,
0001
0000
1000
0000
0010
0000
0000
0000
0010
0000
0000
0000
0010
0100
0010
0000
,
1001
1001
0010
0100
1000
0010
0010
1000
,
0011
0000
1000
0000
0100
1000
0010
0100
0001
0000
0100
0000
1000
0000
0010
0000
,
0101
0000
1000
0000
0010
0000
0010
0000
1000
0000
0001
0100
0001
0000
0010
0000
,
0101
0000
0001
0000
0100
0000
0000
0000
0100
0000
0001
0000
0100
0010
0100
0000
,
1010
0000
1010
0000
2000
0000
0000
0000
0000
0000
0000
0000
0010
0000
0001
0100
,
0000
0000
0010
0000
3202
0000
0000
0000
0000
0000
0000
0303
0000
0000
0000
0000
;
